#TITLE:Fury of the Storm;
#SUBTITLE:;
#ARTIST:Dragonforce;
#TITLETRANSLIT:;
#SUBTITLETRANSLIT:;
#ARTISTTRANSLIT:;
#CREDIT:;
#BANNER:furyofthestorm-bn.PNG;
#BACKGROUND:furyofthestorm-bg.PNG;
#LYRICSPATH:;
#CDTITLE:OMEGAspike.PNG;
#MUSIC:Fury of the Storm.mp3;
#OFFSET:-2.400;
#SAMPLESTART:100.000;
#SAMPLELENGTH:11.920;
#SELECTABLE:YES;
#BPMS:0.000=200.000;
#STOPS:;
#BGCHANGES:;
// cache tags:
#FIRSTBEAT:0.000;
#LASTBEAT:1344.500;
#SONGFILENAME:Songs/Music V.I.P ^_^/(OMEGAspike)Fury of the Storm/Fury of the Storm.sm;
#HASMUSIC:1;
#HASBANNER:1;
#MUSICLENGTH:407.074;
// end cache tags

//---------------dance-single - ----------------
#NOTES:
     dance-single:
     :
     Hard:
     12:
     1.000,1.000,1.000,0.469,1.000,3504.000,510.000,191.000,0.000,1.000:
1001
0000
1000
0100
0001
0100
1010
0101
,
1001
0000
0001
0010
0100
1000
0010
0000
,
1010
0000
0010
0100
0001
0100
0010
0100
,
0001
0010
0100
1000
0010
0100
0001
0010
0100
1000
0010
0100
0001
0010
0100
1000
,
0101
0000
0001
0100
1000
0010
0001
0000
,
1001
0000
0010
0100
0001
0010
0100
0000
,
1010
0101
1010
0101
,
0110
0000
0000
0000
1001
0000
0000
0000
0110
0000
0000
1000
0101
0000
0000
0000
,
1000
0100
0010
0001
0010
0100
1000
0001
1000
0100
0010
0001
0100
0010
1000
0000
,
0010
0100
0001
0100
0010
0100
0001
0100
0010
1000
0010
0100
0010
1000
0100
0000
,
0010
0001
0100
0010
0100
0010
1000
0010
0100
0001
0010
0100
1000
0001
0100
0010
,
1001
0110
0101
1010
0110
1001
2002
3003
,
1000
0100
0010
0001
1000
0001
0010
0100
1000
0001
1000
0010
0100
0001
1000
0000
,
0100
0010
0001
0010
0100
1000
0010
1000
0100
0010
0100
1000
0010
0100
0001
0000
,
0010
1000
0100
0010
0001
0010
0100
1000
0010
0100
0001
1000
0001
0100
0010
0100
,
1001
0110
1010
0101
1001
0110
2002
3003
,
0010
1000
0001
0100
0010
1000
0001
0100
0010
1000
0100
0010
0002
0000
2003
0000
,
3010
0100
0001
0100
0010
1000
0010
0100
0001
0010
0100
1000
0001
1000
0100
0000
,
0010
0001
0010
0100
1000
0010
0100
0001
1000
0010
0100
0001
1000
0010
0100
0001
,
0110
1001
0110
1001
0101
1010
2002
3003
,
0010
1000
0010
0100
0001
0100
0010
1000
0010
0100
0001
0010
0100
1000
0001
0000
,
1000
0100
0010
0001
1000
0001
0010
0100
1000
0001
1000
0100
0010
0001
1000
0000
,
1000
0100
0010
0001
0000
0000
0100
0000
0000
0001
0010
0100
1000
0000
0000
0010
0000
0000
1000
0000
0100
0000
0010
0000
,
0002
0000
0203
0000
,
2300
0000
0000
0000
,
3001
0100
0010
0100
0001
0100
0010
0100
0001
0100
0010
0100
0001
0100
0010
0100
,
0001
0100
0010
0100
0001
0100
0010
0100
0001
0100
0010
0100
0001
0100
0010
0100
,
0010
1000
0100
1000
0010
1000
0100
1000
0010
1000
0100
1000
0010
1000
0100
1000
,
0010
1000
0100
1000
0010
1000
0100
1000
0010
1000
0100
1000
0010
1000
0100
1000
,
0001
0010
0100
0010
0001
0100
0010
1000
0100
0010
0100
1000
0010
0100
0001
0010
,
0100
0010
0001
0100
0010
1000
0100
0010
0100
1000
0010
0100
0001
0010
0100
1000
,
0010
0100
0001
0100
0010
0100
0001
0100
0010
0100
0001
0100
0010
0100
0001
0100
,
0010
0100
0010
0100
0010
0100
0010
0100
0001
1000
0001
1000
0001
1000
0001
1000
,
0100
1000
0010
1000
0100
1000
0010
1000
0100
1000
0010
1000
0100
1000
0010
1000
,
0100
1000
0010
1000
0100
1000
0010
1000
0100
1000
0010
1000
0100
1000
0010
1000
,
0010
0100
0001
0100
0010
0100
0001
0100
0010
0100
0001
0100
0010
0100
0001
0100
,
1001
0110
1000
0011
0101
1000
0110
0101
,
1000
0100
0010
0100
1000
0010
0100
0001
0010
0100
0010
0001
0100
0010
1000
0100
,
0010
0100
1000
0010
0100
0001
0010
0100
0010
0001
0100
0010
1000
0100
0010
0100
,
1001
0101
1001
1010
1001
0101
1001
1010
,
0101
1000
0100
0010
0001
0010
0100
1000
0010
0100
0001
1000
0001
0100
0010
1000
,
0002
0000
0000
0000
0203
0000
0000
0300
,
1010
0101
1000
0001
,
1000
0100
0010
0001
0010
0100
1000
0001
1000
0100
0010
0001
1000
0001
0010
0100
,
1000
0010
0100
0001
0100
0010
1000
0001
1000
0010
0100
0001
0100
0010
1000
0001
,
1000
0100
0010
0001
0010
0100
1000
0001
0100
0010
1000
0001
1000
0001
0010
0100
,
1001
0000
0000
0000
0000
0000
0000
0000
0000
0110
0000
0000
0000
0000
0000
0000
0000
0000
1001
0000
0000
0000
0000
0000
0000
0000
0000
0000
0000
0000
1000
0000
0000
0000
0000
0000
0001
0000
0010
0000
0100
0000
1000
0000
0000
0000
0000
0000
,
0001
0010
0100
1000
0001
1000
0100
0010
0001
1000
0001
0010
0100
1000
0010
0100
,
0001
0100
0010
1000
0001
0010
0100
1000
0010
0100
0001
0100
0010
1000
0010
0100
,
0001
1000
0001
0010
0100
1000
0001
1000
0100
0010
0001
0100
0010
1000
0010
0100
,
0001
0010
0100
1000
0010
0100
0001
1000
0010
0100
0010
0100
0010
0100
0010
0100
,
0001
1000
0100
1000
0001
1000
0100
1000
0001
1000
0100
1000
0001
1000
0100
1000
,
0001
1000
0100
1000
0001
1000
0100
1000
0001
1000
0100
1000
0001
1000
0100
1000
,
0001
0010
0100
0010
0001
0100
0001
0100
0001
0010
0100
0010
0001
0100
0001
0100
,
0001
0010
0100
0010
0001
0100
0001
0100
0001
0010
0100
0010
0001
0100
0001
0100
,
0010
1000
0010
1000
0100
0010
0100
1000
0010
1000
0010
1000
0100
0010
0100
1000
,
0010
1000
0010
1000
0100
0010
0100
1000
0010
1000
0010
1000
0100
0010
0100
1000
,
0001
0010
0100
0010
0001
0100
0010
1000
0100
0010
0001
0010
0100
1000
0010
0100
,
0002
0000
0023
0000
0230
0000
2300
0000
3000
0000
0000
0000
0020
0000
0000
0030
0000
0000
2000
0000
3200
0000
0320
0000
0032
0000
0003
0000
0000
0000
0200
0000
0000
0300
0000
0000
0002
0000
0023
0000
0230
0000
2300
0000
3020
0000
0230
0000
,
0301
1000
0010
0100
0001
1000
0001
0100
0010
1000
0100
0010
0001
0010
0100
1000
,
0010
0100
0001
1000
0001
1000
0010
0100
0001
1000
0100
0010
0001
1000
0001
0010
,
0100
1000
0010
0100
0001
0100
0001
1000
0010
0100
0001
0010
0100
1000
0100
0010
,
1001
0000
0101
0000
0000
0000
0101
0000
1001
0000
0000
0000
0001
0010
0100
1000
,
0001
1000
0100
0010
0001
0010
0100
1000
0001
1000
0100
0010
0001
0010
0100
1000
,
0010
0100
0010
0100
0001
0100
0010
1000
0010
0100
0001
1000
0100
0010
0001
1000
,
0001
0010
0100
1000
0001
0100
0010
1000
0010
0100
0001
1000
0001
0010
0100
1000
,
0010
0100
0010
0100
0010
0100
0010
0100
0001
0100
0001
0100
0001
0100
0001
0100
,
1000
0000
0000
0100
0000
0000
0010
0000
0000
0001
0000
0000
0100
0000
0000
0010
0000
0000
1000
0000
0000
0001
0010
0100
,
1000
0000
0000
1000
0000
0000
0010
0000
0000
0100
0000
0000
0001
0000
0000
0010
0000
0000
0001
0000
0000
1000
0100
0010
,
0001
1000
0100
0010
0001
0100
1000
0010
,
1000
0100
1000
0100
1000
0100
1000
0100
0010
0001
0010
0001
0010
0001
0010
0001
,
1010
0100
0001
0100
0010
1000
0010
0100
,
0011
0100
1000
0100
0010
0001
0100
1000
,
0110
0001
1000
0001
0100
0010
1000
0010
,
0001
1000
0001
1000
0001
1000
0001
1000
0010
0100
0010
0100
0010
0100
0010
0100
,
1000
0000
0001
0000
0100
0010
1000
0000
0010
0000
0100
0000
0001
0010
0100
0000
,
1000
0000
0100
0000
0010
0001
0100
0000
0010
0000
1000
0000
0010
0100
0010
0000
,
0100
0000
0001
0000
1000
0100
0010
0000
0001
0000
0100
0000
0010
1000
0100
0000
,
0010
0000
0001
0000
0010
0100
1000
0000
0010
0000
0100
0000
0001
1000
0001
0000
,
1010
0000
0100
0000
0001
0010
0100
0000
1000
0000
0010
0000
0100
0001
0010
0000
,
1000
0000
0100
0000
0010
0001
0010
0000
0100
0000
1000
0000
0001
0100
0001
0000
,
1000
0000
0010
0000
0100
0001
0010
0000
0100
0000
1000
0000
0010
0100
0010
0000
,
1000
0001
1000
0001
0000
0000
0100
0010
0100
0010
0000
0000
1000
0001
1000
0001
,
1000
0100
0010
0001
0010
0100
1000
0010
0100
0001
0100
0010
1000
0001
0010
0100
,
1000
0010
0100
0001
1000
0010
0100
0001
1000
0100
0010
0001
0010
0100
1000
0100
,
0010
0001
0010
0100
1000
0010
1000
0010
1000
0100
0010
0001
0010
0100
1000
0010
,
0002
0000
0000
0000
1000
0000
1000
0003
,
1001
0010
1100
0110
0001
0010
1100
0100
,
1001
0100
1001
0110
1000
0100
0011
1000
,
0101
1000
0100
1000
0100
1000
0100
1000
0100
1000
0100
1000
0100
1000
0100
1000
,
0101
2000
3001
0110
,
1001
0010
0100
0001
1000
0010
1000
0010
,
1010
0101
1000
0010
0100
0001
0010
0100
,
1001
0100
0010
1000
0001
0010
0100
1000
,
0110
0101
1000
0010
0100
0001
1000
0010
,
1000
0100
0010
0001
1000
0001
0010
0100
1000
0001
0100
0010
1000
0010
0100
0001
,
1000
0001
0010
0100
1000
0100
0010
0001
1000
0001
0010
0100
1000
0010
0100
0001
,
1000
0010
0100
0001
0100
0001
1000
0010
1000
0001
0010
0100
1000
0100
0010
0001
,
1000
0001
0010
0100
1000
0001
1000
0100
0010
0100
0010
0100
0010
0100
0010
0100
,
1001
0010
1000
0010
0100
0001
0010
0100
,
1010
0101
1000
0010
0100
0001
0010
0100
,
1010
0100
0001
1000
0001
0010
1000
0010
,
1001
0000
0101
0000
1000
0100
0010
0001
0010
0100
1000
0100
0010
0001
0010
0100
,
2000
0000
3002
0103
0000
0000
0010
0000
,
1001
0000
0000
0000
0000
0000
0000
0200
0000
0000
0000
0310
0000
0000
0000
1001
,
0000
0000
0000
0101
0000
0000
1010
0000
0000
0000
0110
0000
1001
0000
0101
0000
,
1001
0000
0000
0110
0000
0000
1001
0000
0000
0000
0110
0000
0101
0000
1010
0000
,
0101
0000
0000
1100
0000
0000
0110
0000
0000
0000
0110
0000
1001
0000
0110
0000
,
1001
0000
0000
0101
0000
0000
2020
0000
3030
0000
0110
0000
1010
0000
0101
0000
,
1100
0000
0000
0101
0000
0000
1100
0000
0000
0000
0101
0000
1010
0000
0101
0000
,
0110
0000
0000
1001
0000
0000
0220
0000
0330
0000
1100
0000
0110
0000
0101
0000
,
1010
0000
0000
0101
0000
0000
1001
0000
0000
0000
0110
0000
1010
0000
0101
0000
,
1010
1010
0000
0101
0101
0000
0110
0110
,
1010
0000
0000
0101
0000
0000
1001
0000
0000
0000
0110
0000
1100
0000
0011
0000
,
0001
0000
0010
0000
0100
0000
1000
0000
0000
0010
0000
0000
0100
0000
0000
0001
0000
0000
2000
0000
0000
0000
0000
0000
3000
0000
0000
0000
0000
0000
0110
0000
0000
0000
0000
0000
1001
0000
0000
0000
0000
0000
0110
0000
0000
0000
0000
0000
,
1000
0000
0100
0000
0010
0000
0001
0000
0000
0100
0000
0000
0010
0000
0000
1000
0000
0000
0002
0000
0000
0000
0000
0000
0000
0000
0000
0000
0000
0000
1003
0000
0000
0100
0000
0000
0010
0000
0000
0001
0000
0000
1000
0000
0000
0000
0000
0000
,
0110
0000
0000
0101
0000
0000
1001
0000
0000
0000
0110
0000
1100
0000
0101
0000
,
1001
0000
0000
1001
0000
0000
1001
0000
0000
0000
0110
0000
0101
0000
1010
0000
,
0001
1000
0001
1000
0001
0010
0001
0100
0001
0010
0100
1000
0100
0010
0001
0000
,
1010
0000
0101
0000
1000
0010
0100
0001
0100
0010
1000
0000
0010
0100
0001
1000
,
0102
0023
0000
0000
,
0031
0010
0100
1000
0100
0010
0001
1000
0001
0100
0010
1000
0001
1000
0010
0100
,
0001
0010
0100
1000
0010
0100
0001
0100
0010
0100
0001
0100
0010
1000
0010
0100
,
0010
1000
0100
0010
0001
1000
0001
0010
0100
1000
0001
1000
0010
0100
0001
1000
,
0101
0000
0000
0000
0000
0000
0000
0000
0000
0101
0000
0000
0000
0000
0000
0000
0000
0000
2020
0000
0000
0000
0000
0000
3030
0000
0000
0000
0000
0000
0001
0000
0000
0000
0000
0000
1000
0000
0100
0000
0010
0000
0001
0000
0000
0000
0000
0000
,
0010
1000
0001
0100
0010
1000
0001
0100
0001
0010
0100
1000
0010
1000
0010
0100
,
0001
0010
0100
1000
0001
1000
0100
0010
0001
1000
0010
0100
0001
1000
0001
0010
,
0100
1000
0100
0010
0100
1000
0010
0100
0001
0100
0010
1000
0100
0010
0001
1000
,
0010
0100
0010
0100
0010
0100
0010
0100
0001
1000
0001
1000
0001
1000
0001
1000
,
0001
1000
0010
0100
0001
0010
0100
1000
,
0001
1000
0001
0100
0010
1000
0100
0010
,
0001
0010
0100
0001
0010
1000
0100
0001
,
0100
0010
0100
0010
0100
0010
0100
0010
1000
0100
1000
0100
1000
0100
0010
0001
,
1100
0010
0100
0001
1000
0010
0100
0001
,
1010
0100
0001
0010
0100
1000
0100
0001
,
1010
0001
0100
0010
1000
0001
0100
0010
,
1001
0000
0000
0000
1000
0000
0001
0000
1000
0100
0010
0100
1000
0010
0100
0001
,
1000
0000
0010
0000
0100
0001
0100
0000
0010
0000
1000
0000
0100
0010
0001
0000
,
0010
0000
0100
0000
1000
0010
0100
0000
0001
0000
1000
0000
0010
0100
0001
0000
,
0100
0000
0010
0000
1000
0100
1000
0000
0100
0000
0010
0000
0001
1000
0100
0000
,
0010
0000
0001
0000
0100
0010
1000
0000
0001
0000
1000
0000
0010
0100
0010
0000
,
1001
0000
0100
0000
0010
1000
0100
0000
0010
0000
0001
0000
0100
1000
0100
0000
,
0010
0000
0100
0000
0001
0100
0001
0000
1000
0000
0010
0000
0100
0001
0010
0000
,
1000
0000
0010
0000
0100
0001
1000
0000
0010
0000
1000
0000
0100
0010
0001
0000
,
1000
0000
0010
0000
0100
0001
0010
0000
0100
1000
0100
1000
0100
1000
0100
1000
,
0010
0100
0001
0100
0010
1000
0100
0010
0001
1000
0001
0010
0100
1000
0001
0100
,
0010
1000
0001
1000
0010
0100
0001
1000
0001
0010
0100
1000
0100
0010
0001
1000
,
0001
0100
0010
1000
0001
0010
0100
0010
0001
1000
0100
0010
0100
1000
0010
0100
,
0002
0000
1000
1003
,
0110
0001
1010
0101
1000
0001
0110
0010
,
1001
0100
0011
1100
0001
1000
0110
1000
,
0101
0010
1000
0010
0100
0001
0100
0010
1000
0010
0100
0001
0100
0010
1000
0001
,
0110
0020
0130
1001
,
0101
1000
0010
0100
0001
1000
0001
0010
,
1100
0011
0100
1000
0010
0100
0001
1000
,
0110
0001
1000
0010
0100
0001
0010
0100
,
1001
0101
1000
0010
0100
0001
1000
0001
,
1000
0100
0010
0001
0010
0100
1000
0001
1000
0001
0010
0100
1000
0010
0100
0001
,
1000
0010
0100
0001
0010
0100
1000
0001
1000
0100
0010
0001
0100
0010
1000
0001
,
0010
0100
1000
0010
0100
0001
1000
0001
0010
0100
1000
0100
0010
0001
0100
0010
,
1000
0100
0010
0001
0010
0100
1000
0010
0100
0001
0100
0001
0100
0001
0100
0001
,
1010
0100
0001
1000
0010
0100
0001
0010
,
1100
0011
0100
1000
0010
0100
0001
1000
,
0101
0010
1000
0001
0100
0010
1000
0010
,
0101
1010
0100
0010
0100
0010
0100
0010
,
2000
0000
3002
0103
0000
0000
1010
0000
,
1001
0000
0000
0000
0000
0000
0000
0020
0000
0000
0000
0130
0000
0000
0000
1010
,
0000
0000
0000
0101
0000
0000
0220
0000
0000
0000
0000
0000
0000
0000
0330
0000
,
1001
0000
0010
0010
0010
0010
0010
0010
,
1100
0000
0110
0000
0101
1001
0110
1001
,
0101
0000
1000
1000
1000
1000
1000
1000
,
0110
0000
1001
0000
0110
0110
2002
3003
,
0110
0000
0100
0100
0100
0100
0100
0100
,
0011
0000
1100
0000
0110
1001
0110
0101
,
1001
0000
0001
0001
0001
0001
0001
0001
,
0110
0000
0110
0000
0101
0101
2020
3030
,
0101
0101
0101
0101
1010
1100
1010
1100
,
1001
1001
1001
1001
0110
0101
0110
0101
,
1001
0101
1010
0110
,
1001
1001
0000
0220
0000
0000
0000
0330
,
1001
0110
0101
0110
1010
0000
0110
0000
,
1001
0000
0011
1100
0000
0202
0000
0303
,
0010
0010
1000
0010
0010
0001
0010
0010
,
1000
1000
0010
1000
1000
0001
1000
1000
,
0110
0101
0101
1010
1100
1100
0110
1001
,
0110
0000
0000
0000
0000
0000
0000
1000
0001
0000
0000
0000
0000
0000
0000
0000
0110
0000
0000
0000
0000
0000
0000
0001
1000
0000
0000
0000
0000
0000
0000
0000
,
0110
0101
0101
0110
1100
1100
0110
1001
,
0110
0000
0000
0000
0000
0000
0000
1000
0010
0000
0000
0000
0000
0000
0000
0000
0110
0000
0000
0000
0000
0000
0000
0001
0100
0000
0000
0000
0000
0000
0000
0000
,
1010
1010
0101
0101
0110
0110
1001
1001
,
0101
0101
1001
1001
1010
1010
1001
1001
,
0010
1000
0100
0010
0000
0020
0000
0000
,
0031
0100
0010
1000
0000
0020
0000
0000
,
1030
0100
0010
0001
1000
0000
0000
0000
0001
0010
0100
1000
0001
0000
0000
0000
,
0010
0100
0001
0100
0010
1000
0010
0100
0001
0010
0100
1000
0010
0000
0000
0000
,
0100
0001
0010
0100
1000
0000
0000
0000
1000
0100
0010
0001
1000
0000
0000
0000
,
0010
1000
0010
0100
0001
0100
0010
1000
0001
1000
0010
0100
0002
0000
0000
0000
,
0013
0100
0010
0100
0010
0000
0000
0000
1000
0001
1000
0001
1000
0000
0000
0000
,
0001
0010
0100
1000
0100
0010
0001
1000
0010
0000
0100
0000
0001
0000
0000
0000
,
1000
0100
0010
0100
1000
0000
0000
0000
0001
0010
0100
0010
0001
0000
0000
0000
,
1001
0101
1001
1010
0110
0110
2002
3003
,
0001
0010
0100
1000
0100
0010
0001
1000
0001
0010
0100
1000
0100
0010
0001
0100
,
0001
0010
0100
1000
0100
0010
0001
1000
0001
0010
0100
1000
0020
0000
0000
0000
,
1030
0001
0100
0010
1000
0010
0100
0001
1000
0001
0010
0100
1000
0010
0100
0001
,
1000
0010
0100
0001
0010
0100
1000
0100
0020
0000
0000
0000
0031
0000
0000
0000
,
1100
0110
1010
0101
1001
0110
1001
0101
,
2002
3003
0010
0010
0200
0000
0000
0300
,
0001
0010
0100
1000
0001
1000
0100
0010
0001
0100
0010
1000
0001
0000
0000
0000
,
0001
0010
0100
1000
0100
0010
0001
1000
0010
0100
0001
1000
0001
0010
0100
1000
,
0022
0000
0000
0033
0202
0000
0000
0303
0022
0000
0000
0033
0202
0303
1010
0000
,
0110
0101
1001
0220
0330
1001
1010
0101
,
0000
1001
1010
0101
,
0110
0000
0000
0000
0101
0000
1001
0000
0000
0000
0020
0000
2030
0000
3002
0003
,
1010
0101
1001
1001
0000
0110
0101
1001
,
0110
1010
0101
1001
0011
1100
0202
0303
,
0010
0010
0010
1000
1000
1000
0001
0001
,
1000
0001
0010
0000
1001
0000
0000
0000
0001
1000
0100
0000
1001
0000
0000
0000
,
0101
1000
0001
1000
0010
0100
0001
1000
0010
0100
0001
0010
0100
1000
0001
1000
,
0101
1000
0010
0100
0001
1000
0001
0010
0100
1000
0100
0010
0001
0100
0010
1000
,
0101
1000
0010
0100
0001
1000
0001
0100
0010
1000
0010
0100
0001
0010
0100
1000
,
0101
1001
0101
1001
1010
1001
1010
1001
,
0101
1000
0100
0010
0001
1000
0001
0010
0100
1000
0010
0100
0001
1000
0001
1000
,
0101
1000
0010
0100
0001
0010
0100
1000
0100
0010
0001
0010
0100
1000
0010
1000
,
0101
1000
0100
0010
0001
0010
0100
1000
0010
0100
0001
1000
0001
0010
0100
1000
,
0101
1010
0101
1010
1001
0110
1001
0110
,
1000
0100
0010
0001
0010
0100
1000
0001
1000
0100
0010
0001
0010
0100
1000
0001
,
1000
0010
0100
0001
0100
0010
1000
0001
1000
0010
0100
0001
0100
0010
1000
0001
,
0010
0100
1000
0100
0010
0001
0010
0100
1000
0100
0010
0001
0010
0100
1000
0001
,
1000
0100
0010
0100
1000
0100
0010
0001
1000
0100
0010
0100
1000
0100
0010
0001
,
0100
0010
0100
0001
0100
0010
0100
0001
0100
0010
0100
0001
0100
0010
1000
0001
,
1000
0010
1000
0100
1000
0010
1000
0100
1000
0010
1000
0100
1000
0010
1000
0001
,
0100
0010
1000
0010
0100
0010
1000
0010
0100
0010
1000
0010
0100
0010
1000
0010
,
0100
0001
0100
0010
0100
0001
0100
0010
0100
0001
0100
0010
0100
0001
0100
0010
,
1000
0100
0010
0001
0010
0100
1000
0010
0100
0001
1000
0001
0100
0010
1000
0001
,
0010
0100
1000
0100
0010
0001
0100
0010
1000
0001
0010
0100
1000
0001
1000
0100
,
0010
0001
1000
0001
0010
0100
1000
0010
0100
0001
1000
0001
0100
0010
1000
0001
,
1000
0010
0100
0001
1000
0001
0010
0100
1000
0100
0010
0001
1000
0001
1000
0010
,
0100
0001
1000
0001
1000
0010
0100
0001
1000
0001
0010
0100
1000
0001
0100
0001
,
1000
0010
0100
0001
1000
0001
0100
0010
1000
0001
0010
0100
1000
0001
0010
0001
,
1000
0100
0010
0001
1000
0010
0100
0001
0010
0100
1000
0100
0010
0100
1000
0100
,
0010
0001
0010
0100
1000
0001
0100
0010
1000
0001
0010
0100
0010
0001
0010
0100
,
1001
0101
1001
0101
1001
0101
1001
0101
,
1001
1010
1001
1010
1001
1010
1001
1010
,
0101
0011
0101
0011
0101
0011
0101
0011
,
1010
1100
1010
1100
1010
1100
1010
1100
,
1001
0110
1001
0110
1001
0110
1001
0110
,
1100
0011
1100
0011
1100
0011
1100
0011
,
1010
0101
0110
1001
,
0011
0000
0000
0000
1100
0000
0000
0000
0110
0000
0000
1000
0101
0000
0000
0000
,
1010
0101
1010
0101
1001
0110
1001
0110
,
2000
0000
3200
0000
0000
0000
0310
0000
0001
0100
0010
0000
2000
0000
0000
0000
,
3010
0000
0100
1000
0001
1000
0100
0000
1000
0000
0100
0010
0001
0100
0010
0000
,
2020
3030
2020
3030
0200
0300
0200
0300
0022
0033
0022
0033
2000
3000
2000
3000
,
0010
0100
1000
0001
1100
0011
1010
0101
,
1000
0100
0010
0100
1000
0001
0010
0100
0010
0001
0100
0010
2000
0000
0000
0000
,
3101
0000
1000
0100
1000
0000
0100
0000
0011
0000
1000
0010
0100
0000
0001
0000
,
0010
1000
0010
1000
0001
1000
0010
1000
0010
1000
0001
1000
0010
1000
0010
1000
,
0101
0000
1010
0000
0110
0000
2002
3003
,
0110
0000
1010
0000
0101
0000
2002
3003
,
1000
0100
0010
0001
0010
0100
1000
0001
1000
0100
0010
0001
0200
0000
0000
0000
,
0320
0000
0000
0000
,
1030
0100
0010
0001
0010
0100
1000
0010
0100
0001
1000
0001
,
1000
0000
0000
0000
0010
0000
0000
0000
0100
0000
0000
0000
0001
0000
0000
0010
0000
0000
0100
0000
0000
1000
0000
0000
0100
0000
0000
0010
0000
0000
0001
0000
0000
1000
0000
0000
0020
0000
0000
0000
0000
0000
0000
0000
0000
0000
0000
0000
,
2030
0000
0000
3200
0000
0000
0320
0000
0032
0000
2003
0000
3001
0000
0000
0000
,
2000
3200
2300
3002
0203
0302
2003
3200
2300
3002
0203
0302
2003
3200
2300
3002
,
0013
0100
1000
0100
0010
0001
0010
0100
1000
0100
0010
0001
0020
0000
0000
0000
,
1030
0001
0010
0100
1000
0001
1000
0100
0010
0001
1000
0010
0200
0000
0000
0300
,
1010
0101
1010
0101
1001
0110
1001
0110
,
1000
0100
0010
0001
0200
0000
0320
0000
1030
0001
0100
0010
2000
0000
3200
0000
,
0310
0001
0100
0100
0000
0100
0010
1000
,
0001
0000
1000
0100
0000
0010
0020
0000
,
0130
1000
0001
0010
0000
0100
1000
0010
,
0100
0010
0000
0010
1000
0000
0200
0000
,
0310
0001
0010
1000
0000
1000
0001
1000
,
0010
0100
0001
0100
0000
0100
0010
1000
,
0100
0010
0010
0001
0100
0100
0010
1000
,
1000
0100
0010
0010
0001
0100
1000
0100
,
0001
0010
0100
1000
0010
0100
0001
1000
0001
0010
0100
1000
0010
0000
0010
0000
,
1000
0100
0010
0001
1000
0010
0100
0001
0010
0100
1000
0010
0100
0000
0100
0000
,
0001
0010
0100
1000
0010
0100
0001
1000
0001
0010
0100
1000
0010
0100
0001
1000
,
0010
0000
0100
0000
0001
0000
0010
0000
0100
1000
0100
0010
0001
0010
0100
0010
,
0101
1000
0100
1000
0100
1000
0100
1000
0101
0010
0100
0010
0100
0010
0100
0010
,
0101
1000
0100
1000
0100
1000
0100
1000
0101
0010
0100
0010
0100
0010
0100
0010
,
0101
1000
0100
1000
0100
1000
0100
1000
0101
0010
0100
0010
0100
0010
0100
0010
,
0101
1000
0100
1000
0100
1000
0100
1000
0101
0010
0100
0010
0100
0010
0100
0010
,
1000
0100
0010
0001
0010
0100
1000
0100
0010
0001
1000
0100
0010
0001
0010
0100
,
0020
0030
0020
0030
0020
0030
0020
0030
2002
3003
0220
0330
2002
3003
0220
0330
,
2000
0000
3200
0000
0320
0000
0032
0203
,
0320
2030
3020
0230
0302
0000
0000
0000
,
1003
0100
0010
0001
0010
0100
1000
0100
,
0001
0100
1000
0010
0200
0000
0010
0010
,
0301
0010
0100
1000
0100
0010
0001
1000
0001
0010
0100
1000
0001
0100
0010
1000
,
0001
1000
0100
0010
0001
0010
0100
1000
0020
0000
0230
0000
0320
0000
0000
0000
,
1030
0000
0100
0010
0001
0000
1000
0000
0010
0000
0100
0000
0001
0000
1000
0000
,
0001
0000
0010
0100
1000
0000
0010
0000
0100
0000
0001
0000
2000
0000
0000
0000
,
3010
0001
0001
0010
0100
0100
0010
1000
,
0010
0100
0001
1000
0020
0000
0000
0030
,
0202
0000
0000
0303
0022
0000
0000
0033
0202
0000
0000
0303
1010
0000
0101
0000
,
1001
0110
1010
0202
0000
0303
2000
3020
,
0130
0000
0001
1000
0001
0010
0100
1000
0001
1000
0100
0010
0001
1000
0001
0010
,
0100
1000
0010
0100
0001
1000
0001
0010
0200
0000
0000
0000
0000
0000
0300
0000
,
1000
0001
0100
0010
1000
0001
0010
0100
1000
0001
1000
0100
,
0010
0000
0000
0000
0001
0000
0000
0000
0100
0000
0000
0000
0010
0000
0000
0000
1000
0000
0000
0000
0010
0000
0000
0000
0100
0000
0000
0001
0000
0000
0010
0000
0000
0100
0000
0000
2000
0000
0000
0000
0000
0000
0000
0000
0000
0000
0000
0000
,
3010
0010
0010
1000
0001
0001
0001
0010
,
0100
0100
0100
0010
1000
0100
2000
0000
,
3001
0010
0100
1000
0001
1000
0010
0100
0001
1000
0001
0100
0010
1000
0010
0100
,
0001
0010
0100
1000
0100
0010
0001
1000
0010
0100
0001
1000
0001
0010
0100
1000
,
0001
0100
0001
0100
0001
0000
0000
0000
0000
1000
0010
1000
0010
1000
0000
0000
0000
0000
0010
0000
0100
0000
0010
0000
,
1000
0100
0010
0001
2000
0000
0000
0000
3100
0000
0000
0000
0101
0000
0000
0000
,
2000
0000
0000
0100
0000
0000
0010
0000
,
3002
0100
0000
0000
1000
0000
1000
0000
,
0023
0000
0000
1000
0000
0000
1000
0000
,
0230
0001
0000
0000
0010
0000
0010
0000
,
2300
0000
0100
0010
0000
0000
0010
0000
,
0001
0000
0100
0010
0000
0000
3010
0000
,
1010
0000
0000
0101
0000
0000
1001
0000
,
1010
0101
0000
0200
0310
0000
1001
0000
,
1010
0100
0001
0010
0100
1000
0001
0100
,
1010
0101
1000
0010
0100
0001
0010
0100
,
1010
0100
0001
1000
0010
0100
0001
1000
,
0110
0101
1000
0010
0100
0001
0010
0100
,
1010
0100
0001
0010
0100
1000
0100
0010
0001
1000
0010
0100
0001
1000
0001
0010
,
0100
1000
0100
0010
0001
1000
0010
1000
0001
0100
0001
1000
0010
0100
0001
1000
,
0101
0010
0100
1010
0001
0010
0101
1000
,
0101
0000
1001
0000
0100
0010
0100
0010
1000
0100
1000
0100
1000
0100
1000
0100
,
1001
0100
0010
1000
0001
0010
0100
1000
,
0101
0011
0100
1000
0010
0100
0001
1000
,
0101
1000
0010
0100
0001
0010
0100
1000
,
0110
0101
1000
0010
0100
0001
0010
0100
,
1001
0100
0010
1000
0001
0100
0010
1000
,
0101
1000
0010
0100
0001
0010
0100
1000
,
0110
0001
1000
0001
0100
0010
1000
0010
,
0001
0010
0100
1000
0001
0010
0100
1000
0001
0010
0100
1000
0001
0010
0100
1000
,
0020
0000
0230
0301
0000
0000
1000
0000
,
0101
0000
0000
0000
0000
0000
0000
0020
0000
0000
0000
0130
0000
0000
0000
1001
,
0000
0000
0000
0101
0000
0000
2020
0000
0000
0000
0000
0000
0000
0000
3030
0000
,
1001
0000
0000
0101
0000
0000
1010
0000
0000
0220
0000
0000
0000
0000
0000
0000
,
0000
0330
0000
0000
0000
0000
0000
0000
;
